#TITLE:I_D_E_A;
#SUBTITLE:;
#ARTIST:RoST;
#TITLETRANSLIT:;
#SUBTITLETRANSLIT:;
#ARTISTTRANSLIT:;
#CREDIT:;
#BANNER:IDEA-bn.jpg;
#BACKGROUND:IDEA-bg.jpg;
#LYRICSPATH:;
#CDTITLE:;
#MUSIC:I_D_E_A_RoST.mp3;
#OFFSET:0.000;
#SAMPLESTART:100.000;
#SAMPLELENGTH:12.000;
#SELECTABLE:YES;
#BPMS:0.000=120.000,44.125=60.000,44.188=120.000,44.250=240.000,45.000=120.000,45.063=240.000,45.313=120.000,45.438=240.000,45.938=120.000,46.000=60.000,46.063=120.000,47.375=240.000,47.625=120.000;
#STOPS:;
#BGCHANGES:;
// cache tags:
#FIRSTBEAT:16.000;
#LASTBEAT:340.750;
#SONGFILENAME:Songs/nhac/I_D_E_A/I_D_E_A_RoST.sm;
#HASMUSIC:1;
#HASBANNER:1;
#MUSICLENGTH:170.736;
// end cache tags

//---------------dance-single - ----------------
#NOTES:
     dance-single:
     :
     Hard:
     21:
     1.000,1.000,1.000,0.059,1.000,901.000,292.000,10.000,0.000,143.000:
0000
0000
0000
0000
,
0000
0000
0000
0000
,
0000
0000
0000
0000
,
0000
0000
0000
0000
,
0110
0001
0111
0100
1010
0100
0111
0010
,
1001
0100
1101
0010
0101
1000
1110
0001
,
1100
0100
1011
0001
1010
1000
1011
0100
,
0101
0100
1101
0001
1001
0100
1101
1000
,
0101
1000
0111
0010
0101
0100
1110
0100
,
0011
1000
1110
0100
0101
1000
1110
0001
,
0011
1000
1110
0010
0101
0010
1110
0100
,
0011
0000
0000
0000
0000
0000
0000
0000
0000
0000
0000
0000
0000
0000
0000
0000
0000
0000
0000
0000
0000
1100
0000
0000
0000
0000
0000
0000
0000
0000
0000
0000
0000
0000
0000
0000
0110
0000
0000
0000
0000
0000
0011
0000
0000
0000
1100
0000
0000
0000
0000
0000
1001
0000
0000
0000
0100
0000
0000
0000
1001
0000
0000
0000
,
0110
0000
0000
1110
0000
0001
0000
1010
0000
0100
0000
0010
0000
0100
0010
0101
,
0000
0000
0000
1101
0000
0000
0000
1100
0000
0010
0000
0001
0000
0010
0100
1010
,
0000
0000
0000
1110
0000
0100
0000
1000
0000
0010
0000
0110
0000
1000
0000
0100
,
0000
0010
0000
1100
0000
0000
0000
1001
0000
0100
0000
0010
0000
0100
0010
0101
,
0000
0000
0000
1010
0000
0001
0000
1000
0000
1000
0000
0101
0000
1000
0000
0101
,
0000
0000
0000
1101
0000
0000
0000
1010
0000
0100
0000
0010
0000
1000
0001
0110
,
0000
0000
0000
1110
0000
0100
0000
0001
0000
0010
0000
1100
0000
0100
0000
0111
,
0000
0000
0000
1101
0000
0000
0000
1110
0000
0001
0000
0110
0000
1000
0000
0110
,
0000
1000
0000
0111
0000
1000
0100
0010
1000
0100
0010
0001
0000
0100
0000
1001
,
0000
0100
0000
0011
0000
0000
0000
1000
0100
1010
0101
0010
0100
1010
0101
0010
,
0100
1010
0100
1001
0000
0100
0000
1001
0000
0100
0000
0110
0000
0010
0000
1100
,
0000
0100
0000
0011
0000
0000
0000
0100
0010
0101
0010
0100
0010
0101
1010
0100
,
0010
0101
0010
1001
0000
0100
0000
1010
0000
0100
0000
0010
0000
0001
0000
0100
,
0000
1000
0000
0110
0000
0000
0000
1001
0000
0110
0000
1001
0000
0110
0000
1111
,
0000
0000
0000
1111
0000
1001
0000
1001
0000
1001
0000
1101
0000
1011
0000
1111
,
0000
0000
0000
1101
0000
1011
0000
1101
0000
1110
0000
0111
0000
1011
0000
1111
,
0000
0000
0000
2002
0000
0000
0000
0000
0000
0000
0000
0100
0000
0010
0000
0100
,
0010
0000
0100
0010
0100
0010
3103
0000
0010
0000
0100
0000
0010
0000
1001
0000
0010
0000
0100
0000
0001
0000
1010
0000
0100
0000
0001
0000
1000
0000
0101
0000
,
0000
1000
0000
0110
0001
0100
0001
1010
0000
1000
0000
0101
0010
1000
0010
0101
,
0000
0010
0000
0101
0010
1000
0100
1001
0000
0010
0000
1010
0001
0100
1000
0101
,
0000
0010
0000
1010
0100
0001
1000
0101
0010
0100
1000
1010
0100
0010
1000
0100
,
0010
0001
0000
1010
0000
0100
0000
1110
0000
0001
0000
1010
0000
0100
0000
1101
,
0000
0010
0000
0101
0000
1000
0000
1110
0000
0100
0000
1001
0000
0100
0000
1110
,
0000
0001
0000
0011
0000
0100
0000
1011
0000
0010
0000
0101
0000
1000
0000
1101
,
0000
1000
0000
0202
0000
0000
0000
0010
0000
0000
0000
1010
0000
1000
0000
1010
,
1000
0010
1000
0313
0100
0010
1000
0100
0010
1000
0100
0010
0001
1000
0100
0010
,
0000
0010
0000
0001
0010
0100
1000
0101
0000
0010
0100
1000
0000
0010
0000
1011
,
0000
0000
0000
1100
0000
0001
0000
1100
0000
0010
0000
1100
0010
0001
0010
1100
,
0010
0100
0010
1100
0010
1000
0010
1100
0010
0001
0010
1100
0000
0000
0000
1100
,
0000
0000
0000
1010
0000
0001
0000
1100
0000
0100
0000
1100
0000
0000
0000
1100
,
0000
0000
0000
1100
0000
0010
0000
0001
0000
1000
0000
0110
0000
0000
0000
0010
,
0000
0000
0000
1000
0010
1000
0100
1001
0010
0100
1000
0001
0010
0001
1000
0111
,
0000
0000
0000
1000
0001
0100
1000
0011
0100
1000
0010
0100
1000
0010
0100
1011
,
0000
0000
0000
0010
0100
1000
0001
0110
1000
0100
1000
0001
0100
1000
0001
1110
,
0000
0000
0000
1000
0100
1000
0100
1001
0010
0100
1000
0010
0100
1000
0100
1011
,
0000
0000
0000
0100
1000
0001
0100
1001
0100
1000
0010
0100
1000
0100
0010
1101
,
0000
0000
0000
0100
0010
1000
0010
0101
1000
0100
1000
0001
0100
0010
1000
0111
,
0000
0000
0000
0010
0100
1000
0010
1001
0010
1000
0100
0010
1000
0010
0100
1011
,
0000
0000
0000
1000
0001
0010
1000
0101
0010
0100
1000
0010
0100
0010
1000
0111
,
0000
0000
0000
1000
0100
1000
0010
0100
1000
0010
0100
1000
0100
0010
1000
0101
,
0000
0000
0000
0001
0010
0100
1000
0010
0100
0010
0100
1000
0001
0100
1000
0110
,
0000
0000
0000
1000
0100
1000
0010
0100
1000
0010
0100
1000
0100
0010
0100
1001
,
0000
0000
0000
0001
0010
0100
1000
0100
1000
0001
0100
1000
0010
0100
1000
1001
,
0000
0000
0000
1000
0010
1000
0010
0010
0100
1000
0010
0010
0100
1000
0010
1000
,
0000
0000
0000
0001
0010
1001
0100
1000
0100
1001
0010
0001
0010
1001
0010
1000
,
0100
1001
0100
1000
0010
1001
0010
0001
0010
1001
0100
0010
0100
1001
0100
0001
,
0010
0000
1001
0000
0000
0000
2002
0010
0100
0010
0100
0010
0100
0010
0100
0010
0100
0010
0100
0010
0100
0010
0100
0010
0100
0010
0100
0010
0100
0010
0100
0010
,
0100
0010
0100
0010
0100
0010
3113
0000
1000
0000
0100
0000
0010
0000
1101
0000
0000
0000
0100
0000
0000
0000
1000
0000
0001
0000
0010
0000
0100
0000
1011
0000
,
0000
0010
0000
0100
0010
1000
0100
1011
0000
1000
0000
0010
1000
0100
1000
0111
,
0000
0100
0000
0100
1000
0100
0010
1101
0000
0100
0000
0100
1000
0010
0100
1011
,
0000
0001
0000
0100
0010
0100
1000
1110
0001
0010
0100
1110
0001
0100
1000
1101
,
0010
1000
0001
0110
0000
1000
0000
0111
0000
0100
0000
1010
0000
0100
0000
1101
,
0000
1000
0000
1100
0000
0010
0000
1101
0000
1000
0000
0101
0000
0001
0000
0111
,
0000
0010
0000
0101
0000
0010
0000
1101
0000
0010
0000
1010
0000
0100
0000
1101
,
0000
0010
0000
1102
0000
1010
0100
1010
0100
1010
0100
1013
0000
0100
0000
1011
,
0000
0100
0000
1010
0000
0001
0000
1110
0000
1000
0000
0101
0000
0010
0000
1101
,
0000
0010
0000
1100
0000
0100
0000
1110
0000
0001
0000
0101
0000
0010
0000
0111
,
0000
0010
0000
1100
0000
0001
0000
1110
0000
0110
0000
0111
0000
0110
0000
1110
,
0000
1100
0000
0111
0000
0000
0000
1110
0000
0000
0000
0111
0000
0000
0000
1101
,
0000
0000
0000
1001
0000
0000
0000
0110
0000
1001
0000
0000
0000
1001
0000
0110
,
0000
0000
0000
1111
0000
0000
0000
0110
0000
1001
0000
0000
0000
0110
0000
1001
,
0000
0100
0000
0102
1000
0010
0100
1010
0100
0010
0100
1010
0100
1000
0100
1010
,
0100
0010
0100
2013
0001
0100
0010
0101
0010
0100
0010
0101
0010
0100
0010
0101
,
0010
0001
0010
3102
0010
1000
0100
1010
0100
1000
0100
1010
0100
1000
0100
1010
,
0100
1000
0100
0013
1100
0110
0011
1100
0110
0011
0110
1100
0011
0110
1100
1100
,
0011
0000
1100
0000
0011
0000
0110
0000
1000
0100
0010
0001
1000
0100
0010
0001
1000
0100
0010
0001
1000
0100
0010
0001
1000
0100
0010
0001
0100
0010
0100
0010
,
1000
0001
1000
0001
1000
0100
0010
0001
1000
0100
0010
0001
1000
0100
0010
0001
0001
0010
0100
1000
0001
0010
0100
1000
0001
0010
0100
1000
0001
0010
0100
1000
,
0010
0100
0010
0100
0001
1000
0001
1000
0001
0010
0100
1000
0001
0010
0100
1000
0001
0010
0100
1000
1000
0100
0010
0001
1000
0100
0010
0001
1000
0100
0010
0001
,
1000
0100
0010
0001
1000
0100
0010
0000
0000
0000
1000
0000
0011
0000
1100
0000
0000
0000
0110
0000
1000
0000
0011
0000
1100
0000
0011
0000
1100
0011
0000
1100
,
0000
0000
0000
0110
0000
0000
0000
0110
0000
0000
0000
1100
0000
0000
0000
0011
,
0000
0000
0000
0110
0000
0000
0000
1100
0000
0000
0000
0110
0000
0000
0000
0011
,
0000
0000
0000
0110
0000
0000
0000
1100
0000
0000
0000
0110
0011
0101
1010
0011
,
0000
0000
0000
0110
0000
0000
0000
1100
0000
0000
0000
0110
0011
0110
1100
0011
,
0000
0000
0000
0000
0000
0101
1010
0000
0000
0000
0000
0000
0000
0000
0000
0000
0000
0000
0000
0000
0000
0000
0000
0000
0000
0000
0000
0000
0000
0000
0000
0000
;
